Future – Mask Off (1080p Türkçe Altyazılı Klip)

1235 Views 0 Comment

video

dosya-bilgisi

Dosya Bilgisini Görmek İçin Bunun Solundaki + Tuşuna Basınız

General
Complete name : Future - Mask Off (1080p Türkçe Altyazılı Klip).mp4
Format : MPEG-4
Format profile : Base Media
Codec ID : isom (isom/iso2/avc1/mp41)
File size : 87.0 MiB
Duration : 4 min
Overall bit rate mode : Variable
Overall bit rate : 2 521 kb/s
Writing application : Lavf51.12.1

Video
ID : 1
Format : AVC
Format/Info : Advanced Video Codec
Format profile : High@L1.3
Format settings, CABAC : No
Format settings, ReFrames : 1 frame
Format settings, GOP : M=1, N=12
Codec ID : avc1
Codec ID/Info : Advanced Video Coding
Duration : 4 min
Bit rate : 2 390 kb/s
Width : 1 920 pixels
Height : 692 pixels
Display aspect ratio : 2.775
Frame rate mode : Constant
Frame rate : 23.976 (24000/1001) FPS
Color space : YUV
Chroma subsampling : 4:2:0
Bit depth : 8 bits
Scan type : Progressive
Bits/(Pixel*Frame) : 0.075
Stream size : 82.5 MiB (95%)


Audio
ID : 2
Format : AAC
Format/Info : Advanced Audio Codec
Format profile : LC
Codec ID : 40
Duration : 4 min
Bit rate mode : Variable
Bit rate : 127 kb/s
Channel(s) : 2 channels
Channel positions : Front: L R
Sampling rate : 44.1 kHz
Frame rate : 43.066 FPS (1024 spf)
Compression mode : Lossy
Stream size : 4.39 MiB (5%)

ekran-goruntuleri

yandex-disk

0 Comments

Bir Cevap Yazın

%d blogcu bunu beğendi: