LG TV Ağustos 2017 Kanal Listesi

10646 Views 0 Comment

aciklama

Bu Kanal Listesi LG 32lf650v TV’de hazılanıp denemiştir. 3 Ağustos 2017 itibari ile günceldir.

Bu listeyi aşağıdaki modellerde de kullanabilirsiniz:

  • LA613 LA320 LA640 LA660 LA690 LA740 ve serinin sayamadığımız diğer modelleri..
  • LB650 LB670 serinin sayamadığımız diğer modelleri
  • LF652 LF630 serinin sayamadığımız diğer modelleri
  • UF6407 UF6807 UF7787 UF8507
  • EG VE AG Serisi

dosya-bilgisi

Dosya Bilgisini Görmek İçin Bunun Solundaki + Tuşuna Basınız

General
Complete name : LG WEBOS TV Ağustos 2017 [bL00keRs]\lg-webos-tv-agustos-2017-sadece-turksat-bL00keRs.rar
Format : RAR
Format/Info : From Rarlabs
File size : 545 KiB

General
Complete name : LG WEBOS TV Ağustos 2017 [bL00keRs]\lg-webos-tv-agustos-2017-sadece-turksat-dsmartli-bL00keRs.rar
Format : RAR
Format/Info : From Rarlabs
File size : 540 KiB

General
Complete name : LG WEBOS TV Ağustos 2017 [bL00keRs]\lg-webos-tv-agustos-2017-turksat-eutelsat7-bL00keRs.rar
Format : RAR
Format/Info : From Rarlabs
File size : 522 KiB

General
Complete name : LG WEBOS TV Ağustos 2017 [bL00keRs]\lg-webos-tv-agustos-2017-turksat-eutelsat7-dsmartli-bL00keRs.rar
Format : RAR
Format/Info : From Rarlabs
File size : 522 KiB

General
Complete name : LG WEBOS TV Ağustos 2017 [bL00keRs]\lg-webos-tv-agustos-2017-turksat-hotbird13-eutelsat7-bL00keRs.rar
Format : RAR
Format/Info : From Rarlabs
File size : 726 KiB

General
Complete name : LG WEBOS TV Ağustos 2017 [bL00keRs]\lg-webos-tv-agustos-2017-turksat-hotbird13-eutelsat7-dsmartli-bL00keRs.rar
Format : RAR
Format/Info : From Rarlabs
File size : 729 KiB

General
Complete name : Türksat 42\GlobalClone00001.TLL
File size : 2.84 MiB

General
Complete name : Türksat 42\sadeceturksat-sifresiz.jpg
Format : JPEG
File size : 446 KiB

Image
Format : JPEG
Width : 581 pixels
Height : 799 pixels
Color space : YUV
Chroma subsampling : 4:2:0
Bit depth : 8 bits
Compression mode : Lossy
Stream size : 446 KiB (100%)

General
Complete name : Türksat 42 (D-Smartlı)\GlobalClone00001.TLL
File size : 2.84 MiB

General
Complete name : Türksat 42 (D-Smartlı)\sadce-turksat-dsmartli.jpg
Format : JPEG
File size : 444 KiB

Image
Format : JPEG
Width : 598 pixels
Height : 797 pixels
Color space : YUV
Chroma subsampling : 4:2:0
Bit depth : 8 bits
Compression mode : Lossy
Stream size : 444 KiB (100%)

General
Complete name : Türksat 42 + Eutelsat 7\GlobalClone00001.TLL
File size : 2.84 MiB

General
Complete name : Türksat 42 + Eutelsat 7\turksat+eutelsat7.jpg
Format : JPEG
File size : 418 KiB

Image
Format : JPEG
Width : 599 pixels
Height : 796 pixels
Color space : YUV
Chroma subsampling : 4:2:0
Bit depth : 8 bits
Compression mode : Lossy
Stream size : 418 KiB (100%)

General
Complete name : Türksat 42 + Eutelsat 7 (D-Smartlı)\GlobalClone00001.TLL
File size : 2.84 MiB

General
Complete name : Türksat 42 + Eutelsat 7 (D-Smartlı)\turksat+eutelsat7-dsmartli.jpg
Format : JPEG
File size : 411 KiB

Image
Format : JPEG
Width : 589 pixels
Height : 793 pixels
Color space : YUV
Chroma subsampling : 4:2:0
Bit depth : 8 bits
Compression mode : Lossy
Stream size : 411 KiB (100%)

General
Complete name : Türksat 42 + Hotbird 13 + Eutelsat 7\GlobalClone00001.TLL
File size : 2.85 MiB

General
Complete name : Türksat 42 + Hotbird 13 + Eutelsat 7\turksat-hotbird-eutelsat7.jpg
Format : JPEG
File size : 620 KiB

Image
Format : JPEG
Width : 888 pixels
Height : 791 pixels
Color space : YUV
Chroma subsampling : 4:2:0
Bit depth : 8 bits
Compression mode : Lossy
Stream size : 620 KiB (100%)

General
Complete name : Türksat 42 + Hotbird 13 + Eutelsat 7 (D-Smartlı)\GlobalClone00001.TLL
File size : 2.85 MiB

General
Complete name : Türksat 42 + Hotbird 13 + Eutelsat 7 (D-Smartlı)\turksat-hotbird-eutelsat7-dsmartli.jpg
Format : JPEG
File size : 620 KiB

Image
Format : JPEG
Width : 843 pixels
Height : 793 pixels
Color space : YUV
Chroma subsampling : 4:2:0
Bit depth : 8 bits
Compression mode : Lossy
Stream size : 620 KiB (100%)

kanal-listesi

Hazır Kanal Listesi Smart Tv’ye Nasıl Yüklenir (LA-LB serisinde)

Öncelikle Dosyayı flash diske atın.
İkinci adımda *Usb diskinizi* Smart Tv’nizin ilk usb girişine takın.
Sonra Kumandadaki SETTING butonuna basılı tutun ve Ayarlar kısmı kaybolana kadar bırakmayın
Üst kısımda kanal bilgisi çıkınca hızlıca ” 1 , 1 , 0 , 5 ” sayılarına daha sonrada OK butonuna basın
Karşınıza çıkacak olan menüde *USB Cloning’i seçin
Son adım olarak ‘*Receive from USB*‘ seçeneğine basın flaşa attığınız liste karışınıza gelecek ve OK diyerek kanalları yükleyin

Hazır Kanal Listesi Smart Tv’ye Nasıl Yüklenir (LF-UF ve diğer yeni WEBOS serisinde)

Öncelikle Dosyayı flash diske atın.
İkinci adımda Usb diskinizi Smart Tv’nizin ilk usb girişine takın.
Sonra Kumandadaki SETTING butonuna basarak gelişmiş ayarlara gelin
Kanallar kanal ayarlama derseniz en altta KANALLARI KOPYALA seçeneği olacaktır USB-TV olanı seçerek yükleme yapınız
KANALLARI kopyala yoksa SETTİNGS- Gelişmiş- Hızlı-Kanallar dediğinizde en altta KANALLARI Kopyala olacaktır..

kanal-listesi-yukleme-videosu

Kanal Listesini Aşağıdan İndirebilirsiniz.

yandex-disk

0 Comments

Bir Cevap Yazın

%d blogcu bunu beğendi: