The Chainsmokers & Coldplay – Something Just Like This (1080p Türkçe Altyazılı Lyric Video)

4138 Views 0 Comment

video

dosya-bilgisi

Dosya Bilgisini Görmek İçin Bunun Solundaki + Tuşuna Basınız

General
Complete name : The Chainsmokers & Coldplay - Something Just Like This (1080p Türkçe Altyazılı Lyric Video).mp4
Format : MPEG-4
Format profile : Base Media
Codec ID : isom (isom/iso2/avc1/mp41)
File size : 73.7 MiB
Duration : 4mn 7s
Overall bit rate mode : Variable
Overall bit rate : 2 500 Kbps
Movie name : Something Just Like This
Album : omething Just Like This
Track name/Position : 1
Performer : The Chainsmokers & Coldplay
Recorded date : 2017
Writing application : Lavf51.12.1

Video
ID : 1
Format : AVC
Format/Info : Advanced Video Codec
Format profile : High@L1.3
Format settings, CABAC : No
Format settings, ReFrames : 1 frame
Format settings, GOP : M=1, N=12
Codec ID : avc1
Codec ID/Info : Advanced Video Coding
Duration : 4mn 7s
Bit rate : 2 369 Kbps
Width : 1 920 pixels
Height : 1 080 pixels
Display aspect ratio : 16:9
Frame rate mode : Constant
Frame rate : 24.000 fps
Color space : YUV
Chroma subsampling : 4:2:0
Bit depth : 8 bits
Scan type : Progressive
Bits/(Pixel*Frame) : 0.048
Stream size : 69.8 MiB (95%)

Audio
ID : 2
Format : AAC
Format/Info : Advanced Audio Codec
Format profile : LC
Codec ID : 40
Duration : 4mn 7s
Bit rate mode : Variable
Bit rate : 128 Kbps
Channel(s) : 2 channels
Channel positions : Front: L R
Sampling rate : 44.1 KHz
Frame rate : 43.066 fps (1024 spf)
Compression mode : Lossy
Stream size : 3.76 MiB (5%)

ekran-goruntuleri

yandex-disk

0 Comments

Bir Cevap Yazın

%d blogcu bunu beğendi: