Shawn Mendes – There’s Nothing Holdin Me Back (1080p Türkçe Altyazılı Lyric Video)

2149 Views 0 Comment

video

dosya-bilgisi

Dosya Bilgisini Görmek İçin Bunun Solundaki + Tuşuna Basınız

General
Complete name : Shawn Mendes - Theres Nothing Holdin Me Back (1080p Türkçe Altyazılı Lyric Video).mp4
Format : MPEG-4
Format profile : Base Media
Codec ID : isom (isom/iso2/avc1/mp41)
File size : 64.0 MiB
Duration : 3 min
Overall bit rate mode : Variable
Overall bit rate : 2 697 kb/s
Movie name : Theres Nothing Holdin Me Back
Album : Theres Nothing Holdin Me Back
Track name/Position : 1
Performer : Shawn Mendes
Recorded date : 2017
Writing application : Lavf51.12.1
Copyright : blog.cemsaban.com


Video
ID : 1
Format : AVC
Format/Info : Advanced Video Codec
Format profile : High@L1.3
Format settings, CABAC : No
Format settings, ReFrames : 1 frame
Format settings, GOP : M=1, N=12
Codec ID : avc1
Codec ID/Info : Advanced Video Coding
Duration : 3 min
Bit rate : 2 565 kb/s
Width : 1 920 pixels
Height : 1 080 pixels
Display aspect ratio : 16:9
Frame rate mode : Constant
Frame rate : 23.976 (24000/1001) FPS
Color space : YUV
Chroma subsampling : 4:2:0
Bit depth : 8 bits
Scan type : Progressive
Bits/(Pixel*Frame) : 0.052
Stream size : 60.9 MiB (95%)


Audio
ID : 2
Format : AAC
Format/Info : Advanced Audio Codec
Format profile : LC
Codec ID : 40
Duration : 3 min
Bit rate mode : Variable
Bit rate : 128 kb/s
Channel(s) : 2 channels
Channel positions : Front: L R
Sampling rate : 44.1 kHz
Frame rate : 43.066 FPS (1024 spf)
Compression mode : Lossy
Stream size : 3.04 MiB (5%)

ekran-goruntuleri

yandex-disk

Şifre Çözme Anahtarı: !_A-sfdHXkrI6rrEhZJmDDcIBnq0bhPTpPG2nu-MePQw

0 Comments

Bir Cevap Yazın

%d blogcu bunu beğendi: