Anne-Marie – Ciao Adios (1080p Türkçe Altyazılı Klip)

2157 Views 0 Comment

video

dosya-bilgisi

Dosya Bilgisini Görmek İçin Bunun Solundaki + Tuşuna Basınız

General
Complete name : Anne-Marie – Ciao Adios (1080p Türkçe Altyazılı Klip).mp4
Format : MPEG-4
Format profile : Base Media
Codec ID : isom (isom/iso2/avc1/mp41)
File size : 61.8 MiB
Duration : 3mn 29s
Overall bit rate mode : Variable
Overall bit rate : 2 475 Kbps
Movie name : Ciao Adios
Album : Ciao Adios
Track name/Position : 1
Performer : Anne-Marie
Recorded date : 2017
Writing application : Lavf51.12.1

Video
ID : 1
Format : AVC
Format/Info : Advanced Video Codec
Format profile : High@L1.3
Format settings, CABAC : No
Format settings, ReFrames : 1 frame
Format settings, GOP : M=1, N=12
Codec ID : avc1
Codec ID/Info : Advanced Video Coding
Duration : 3mn 29s
Duration_LastFrame : -40ms
Bit rate : 2 344 Kbps
Width : 1 920 pixels
Height : 796 pixels
Display aspect ratio : 2.40:1
Frame rate mode : Constant
Frame rate : 12.500 fps
Color space : YUV
Chroma subsampling : 4:2:0
Bit depth : 8 bits
Scan type : Progressive
Bits/(Pixel*Frame) : 0.123
Stream size : 58.5 MiB (95%)

Audio
ID : 2
Format : AAC
Format/Info : Advanced Audio Codec
Format profile : LC
Codec ID : 40
Duration : 3mn 29s
Bit rate mode : Variable
Bit rate : 128 Kbps
Channel(s) : 2 channels
Channel positions : Front: L R
Sampling rate : 44.1 KHz
Frame rate : 43.066 fps (1024 spf)
Compression mode : Lossy
Stream size : 3.19 MiB (5%)

ekran-goruntuleri

yandex-disk

Şifre Çözme Anahtarı: !XQbaMapEQrIaCRoDDVwWQ2NRNo79eKoyWqGXC5RmJwc

0 Comments

Bir Cevap Yazın

%d blogcu bunu beğendi: