La La Land ~ Ryan Gosling & Emma Stone – City of Stars (1080p Türkçe Altyazılı Videolar)

1440 Views 0 Comment

video

dosya-bilgisi

Movie Clip Versiyonu:

Dosya Bilgisini Görmek İçin Bunun Solundaki + Tuşuna Basınız

General
Complete name : Ryan Gosling & Emma Stone - City Of Stars (1080p Türkçe Altyazılı Movie Clip).mp4
Format : MPEG-4
Format profile : Base Media
Codec ID : isom (isom/iso2/avc1/mp41)
File size : 85.5 MiB
Duration : 1 min
Overall bit rate mode : Variable
Overall bit rate : 6 206 kb/s
Writing application : Lavf51.12.1

Video
ID : 1
Format : AVC
Format/Info : Advanced Video Codec
Format profile : Baseline@L1.3
Format settings, CABAC : No
Format settings, ReFrames : 1 frame
Format settings, GOP : M=1, N=12
Codec ID : avc1
Codec ID/Info : Advanced Video Coding
Duration : 1 min
Bit rate : 6 076 kb/s
Width : 1 920 pixels
Height : 744 pixels
Display aspect ratio : 2.581
Frame rate mode : Constant
Frame rate : 23.976 (24000/1001) FPS
Color space : YUV
Chroma subsampling : 4:2:0
Bit depth : 8 bits
Scan type : Progressive
Bits/(Pixel*Frame) : 0.177
Stream size : 83.7 MiB (98%)

Audio
ID : 2
Format : AAC
Format/Info : Advanced Audio Codec
Format profile : LC
Codec ID : 40
Duration : 1 min
Bit rate mode : Variable
Bit rate : 128 kb/s
Channel(s) : 2 channels
Channel positions : Front: L R
Sampling rate : 44.1 kHz
Frame rate : 43.066 FPS (1024 spf)
Compression mode : Lossy
Stream size : 1.76 MiB (2%)

Soundtrack Versiyonu:

Dosya Bilgisini Görmek İçin Bunun Solundaki + Tuşuna Basınız

General
Complete name : Ryan Gosling & Emma Stone - City of Stars (1080p Türkçe Altyazılı Soundtrack).mp4
Format : MPEG-4
Format profile : Base Media
Codec ID : isom (isom/iso2/avc1/mp41)
File size : 53.1 MiB
Duration : 2 min
Overall bit rate mode : Variable
Overall bit rate : 3 068 kb/s
Movie name : City Of Stars
Album : La La Land Soundtrack
Track name/Position : 1
Performer : Ryan Gosling & Emma Stone
Recorded date : 2016
Writing application : Lavf51.12.1

Video
ID : 1
Format : AVC
Format/Info : Advanced Video Codec
Format profile : Baseline@L1.3
Format settings, CABAC : No
Format settings, ReFrames : 1 frame
Format settings, GOP : M=1, N=12
Codec ID : avc1
Codec ID/Info : Advanced Video Coding
Duration : 2 min
Bit rate : 2 937 kb/s
Width : 1 920 pixels
Height : 1 080 pixels
Display aspect ratio : 16:9
Frame rate mode : Constant
Frame rate : 23.976 (24000/1001) FPS
Color space : YUV
Chroma subsampling : 4:2:0
Bit depth : 8 bits
Scan type : Progressive
Bits/(Pixel*Frame) : 0.059
Stream size : 50.8 MiB (96%)

Audio
ID : 2
Format : AAC
Format/Info : Advanced Audio Codec
Format profile : LC
Codec ID : 40
Duration : 2 min
Bit rate mode : Variable
Bit rate : 128 kb/s
Channel(s) : 2 channels
Channel positions : Front: L R
Sampling rate : 44.1 kHz
Frame rate : 43.066 FPS (1024 spf)
Compression mode : Lossy
Stream size : 2.22 MiB (4%)

ekran-goruntuleri

Movie Clip Versiyonu:

Soundtrack Versiyonu:

Movie Clip Versiyonu:

yandex-disk

Soundtrack Versiyonu:

yandex-disk

0 Comments

Bir Cevap Yazın

%d blogcu bunu beğendi: