DJ Snake feat. Justin Bieber – Let Me Love You (1080p Türkçe Altyazılı Klip)

1064 Views 0 Comment

video

dosya-bilgisi

Dosya Bilgisini Görmek İçin Bunun Solundaki + Tuşuna Basınız

General
Complete name : DJ Snake feat. Justin Bieber - Let Me Love You (1080p Türkçe Altyazılı Klip).mp4
Format : MPEG-4
Format profile : Base Media
Codec ID : isom (isom/iso2/avc1/mp41)
File size : 57.8 MiB
Duration : 3mn 25s
Overall bit rate mode : Variable
Overall bit rate : 2 363 Kbps
Movie name : Let Me Love You
Album : Encore
Track name/Position : 13
Performer : DJ Snake feat. Justin Bieber
Recorded date : 2016
Writing application : Lavf51.12.1

Video
ID : 1
Format : AVC
Format/Info : Advanced Video Codec
Format profile : Baseline@L1.3
Format settings, CABAC : No
Format settings, ReFrames : 1 frame
Format settings, GOP : M=1, N=12
Codec ID : avc1
Codec ID/Info : Advanced Video Coding
Duration : 3mn 25s
Bit rate : 2 231 Kbps
Width : 1 920 pixels
Height : 776 pixels
Display aspect ratio : 2.474
Frame rate mode : Constant
Frame rate : 23.976 (24000/1001) fps
Color space : YUV
Chroma subsampling : 4:2:0
Bit depth : 8 bits
Scan type : Progressive
Bits/(Pixel*Frame) : 0.062
Stream size : 54.6 MiB (94%)


Audio
ID : 2
Format : AAC
Format/Info : Advanced Audio Codec
Format profile : LC
Codec ID : 40
Duration : 3mn 25s
Bit rate mode : Variable
Bit rate : 128 Kbps
Channel(s) : 2 channels
Channel positions : Front: L R
Sampling rate : 44.1 KHz
Frame rate : 43.066 fps (1024 spf)
Compression mode : Lossy
Stream size : 3.14 MiB (5%)

ekran-goruntuleri

yandex-disk

0 Comments

Bir Cevap Yazın

%d blogcu bunu beğendi: