Carina Round – For Everything A Reason (1080p Türkçe Altyazılı Lyric Video)

592 Views 0 Comment

video

dosya-bilgisi

Dosya Bilgisini Görmek İçin Bunun Solundaki + Tuşuna Basınız

General
Complete name : Carina Round - For Everything A Reason (1080p Türkçe Altyazılı Lyric Video).mp4
Format : MPEG-4
Format profile : Base Media
Codec ID : isom (isom/iso2/avc1/mp41)
File size : 36.3 MiB
Duration : 5 min
Overall bit rate mode : Variable
Overall bit rate : 960 kb/s
Movie name : For Everything A Reason
Performer : Carina Round
Writing application : Lavf51.12.1

Video
ID : 1
Format : AVC
Format/Info : Advanced Video Codec
Format profile : Baseline@L1.3
Format settings, CABAC : No
Format settings, ReFrames : 1 frame
Format settings, GOP : M=1, N=12
Codec ID : avc1
Codec ID/Info : Advanced Video Coding
Duration : 5 min
Bit rate : 828 kb/s
Width : 1 920 pixels
Height : 1 080 pixels
Display aspect ratio : 16:9
Frame rate mode : Constant
Frame rate : 30.000 FPS
Color space : YUV
Chroma subsampling : 4:2:0
Bit depth : 8 bits
Scan type : Progressive
Bits/(Pixel*Frame) : 0.013
Stream size : 31.3 MiB (86%)
Language : English

Audio
ID : 2
Format : AAC
Format/Info : Advanced Audio Codec
Format profile : LC
Codec ID : 40
Duration : 5 min
Bit rate mode : Variable
Bit rate : 128 kb/s
Channel(s) : 2 channels
Channel positions : Front: L R
Sampling rate : 44.1 kHz
Frame rate : 43.066 FPS (1024 spf)
Compression mode : Lossy
Stream size : 4.82 MiB (13%)
Language : English

ekran-goruntuleri

for-everything-a-reason-ss-1

for-everything-a-reason-ss-2

for-everything-a-reason-ss-3

for-everything-a-reason-ss-4

for-everything-a-reason-ss-5

yandex-disk

0 Comments

Bir Cevap Yazın

%d blogcu bunu beğendi: