PowerTürk Kulis – İrfan Özata – Meşrep (1080p)

572 Views 0 Comment

video

dosya-bilgisi

Dosya Bilgisini Görmek İçin Bunun Solundaki + Tuşuna Basınız


General
Complete name : İrfan Özata - Meşrep (PowerTürk Kulis 1080p).mp4
Format : MPEG-4
Format profile : Base Media
Codec ID : isom (isom/iso2/avc1/mp41)
File size : 225 MiB
Duration : 9 min
Overall bit rate mode : Variable
Overall bit rate : 3 184 kb/s
Movie name : Meşrep
Performer : İrfan Özata
Writing application : Lavf51.12.1

Video
ID : 1
Format : AVC
Format/Info : Advanced Video Codec
Format profile : High@L1.3
Format settings, CABAC : No
Format settings, ReFrames : 1 frame
Format settings, GOP : M=1, N=12
Codec ID : avc1
Codec ID/Info : Advanced Video Coding
Duration : 9 min
Bit rate : 3 051 kb/s
Width : 1 920 pixels
Height : 1 080 pixels
Display aspect ratio : 16:9
Frame rate mode : Constant
Frame rate : 50.000 FPS
Color space : YUV
Chroma subsampling : 4:2:0
Bit depth : 8 bits
Scan type : Progressive
Bits/(Pixel*Frame) : 0.029
Stream size : 216 MiB (96%)

Audio
ID : 2
Format : AAC
Format/Info : Advanced Audio Codec
Format profile : LC
Codec ID : 40
Duration : 9 min
Bit rate mode : Variable
Bit rate : 128 kb/s
Channel(s) : 2 channels
Channel positions : Front: L R
Sampling rate : 44.1 kHz
Frame rate : 43.066 FPS (1024 spf)
Compression mode : Lossy
Stream size : 9.03 MiB (4%)
Language : English

ekran-goruntuleri

poweturk-kulis-irfan-ozata-mesrep-ss-1

poweturk-kulis-irfan-ozata-mesrep-ss-2

poweturk-kulis-irfan-ozata-mesrep-ss-3

poweturk-kulis-irfan-ozata-mesrep-ss-4

poweturk-kulis-irfan-ozata-mesrep-ss-5

poweturk-kulis-irfan-ozata-mesrep-ss-6

yandex-disk

0 Comments

Bir Cevap Yazın

%d blogcu bunu beğendi: