The Chainsmokers feat. Halsey – Closer (1080p Türkçe Altyazılı Klip)

611 Views 0 Comment

video

dosya-bilgisi

Dosya Bilgisini Görmek İçin Bunun Solundaki + Tuşuna Basınız

General
Complete name : The Chainsmokers feat. Halsey - Closer (1080p Türkçe Altyazılı Klip).mp4
Format : MPEG-4
Format profile : Base Media
Codec ID : isom (isom/iso2/avc1/mp41)
File size : 65.9 MiB
Duration : 4 min
Overall bit rate mode : Variable
Overall bit rate : 2 238 kb/s
Movie name : Closer
Album : Closer
Track name/Position : 1
Performer : The Chainsmokers feat. Halsey
Recorded date : 2016
Copyright : blog.cemsaban.com
Comment : bL00keRs.tumblr.com

Video
ID : 1
Format : AVC
Format/Info : Advanced Video Codec
Format profile : High@L1.3
Format settings, CABAC : No
Format settings, ReFrames : 1 frame
Format settings, GOP : M=1, N=12
Codec ID : avc1
Codec ID/Info : Advanced Video Coding
Duration : 4 min
Bit rate : 2 107 kb/s
Width : 1 920 pixels
Height : 880 pixels
Display aspect ratio : 2.2:1
Frame rate mode : Constant
Frame rate : 23.976 (23976/1000) FPS
Color space : YUV
Chroma subsampling : 4:2:0
Bit depth : 8 bits
Scan type : Progressive
Bits/(Pixel*Frame) : 0.052
Stream size : 62.0 MiB (94%)

Audio
ID : 2
Format : AAC
Format/Info : Advanced Audio Codec
Format profile : LC
Codec ID : 40
Duration : 4 min
Bit rate mode : Variable
Bit rate : 127 kb/s
Channel(s) : 2 channels
Channel positions : Front: L R
Sampling rate : 44.1 kHz
Frame rate : 43.066 FPS (1024 spf)
Compression mode : Lossy
Stream size : 3.74 MiB (6%)

ekran-goruntuleri

closer-screenshot-1

closer-screenshot-2

closer-screenshot-3

closer-screenshot-4

closer-screenshot-5

closer-screenshot-6

yandex-disk

0 Comments

Bir Cevap Yazın

%d blogcu bunu beğendi: