Lady Gaga – Perfect Illusion (1080p Türkçe Altyazılı Klip)

569 Views 0 Comment

video

dosya-bilgisi

Dosya Bilgisini Görmek İçin Bunun Solundaki + Tuşuna Basınız


General
Complete name : Lady Gaga - Perfect Illusion (1080p Türkçe Altyazılı Klip).mp4
Format : MPEG-4
Format profile : Base Media
Codec ID : isom (isom/iso2/avc1/mp41)
File size : 98.7 MiB
Duration : 3 min
Overall bit rate mode : Variable
Overall bit rate : 4 502 kb/s
Movie name : Perfect Illusion
Album : Joanne
Track name/Position : 6
Performer : Lady Gaga
Recorded date : 2016
Copyright : blog.cemsaban.com
Comment : bL00keRs.tumblr.com

Video
ID : 1
Format : AVC
Format/Info : Advanced Video Codec
Format profile : Baseline@L1.3
Format settings, CABAC : No
Format settings, ReFrames : 1 frame
Format settings, GOP : M=1, N=12
Codec ID : avc1
Codec ID/Info : Advanced Video Coding
Duration : 3 min
Bit rate : 4 373 kb/s
Width : 1 920 pixels
Height : 1 080 pixels
Display aspect ratio : 16:9
Frame rate mode : Constant
Frame rate : 23.976 (23976/1000) FPS
Color space : YUV
Chroma subsampling : 4:2:0
Bit depth : 8 bits
Scan type : Progressive
Bits/(Pixel*Frame) : 0.088
Stream size : 95.9 MiB (97%)

Audio
ID : 2
Format : AAC
Format/Info : Advanced Audio Codec
Format profile : LC
Codec ID : 40
Duration : 3 min
Bit rate mode : Variable
Bit rate : 126 kb/s
Channel(s) : 2 channels
Channel positions : Front: L R
Sampling rate : 44.1 kHz
Frame rate : 43.066 FPS (1024 spf)
Compression mode : Lossy
Stream size : 2.77 MiB (3%)

ekran-goruntuleri

perfect-illusion-screenshot-1
perfect-illusion-screenshot-2
perfect-illusion-screenshot-3
perfect-illusion-screenshot-4
perfect-illusion-screenshot-5
perfect-illusion-screenshot-6

yandex-disk

0 Comments

Bir Cevap Yazın

%d blogcu bunu beğendi: