gnash feat. olivia o’brien – i hate u i love u (1080p Türkçe Altyazılı Klip)

698 Views 0 Comment

video

dosya-bilgisi

Dosya Bilgisini Görmek İçin Bunun Solundaki + Tuşuna Basınız


General
Complete name : gnash feat. olivia o'brien - i hate u i love u (1080p Türkçe Altyazılı Klip).mp4
Format : MPEG-4
Format profile : Base Media
Codec ID : isom (isom/iso2/avc1/mp41)
File size : 91.2 MiB
Duration : 3 min
Overall bit rate mode : Variable
Overall bit rate : 3 388 kb/s
Movie name : i hate u i love u
Album : i hate u i love u
Track name/Position : 1
Performer : gnash feat. olivia obrien
Recorded date : 2016
Writing application : Lavf51.12.1
Copyright : bL00keRs
Comment : blog.cemsaban.com


Video
ID : 1
Format : AVC
Format/Info : Advanced Video Codec
Format profile : Baseline@L1.3
Format settings, CABAC : No
Format settings, ReFrames : 1 frame
Format settings, GOP : M=1, N=12
Codec ID : avc1
Codec ID/Info : Advanced Video Coding
Duration : 3 min
Bit rate : 3 255 kb/s
Width : 1 920 pixels
Height : 960 pixels
Display aspect ratio : 2.000
Frame rate mode : Constant
Frame rate : 30.000 FPS
Color space : YUV
Chroma subsampling : 4:2:0
Bit depth : 8 bits
Scan type : Progressive
Bits/(Pixel*Frame) : 0.059
Stream size : 87.7 MiB (96%)
Language : English


Audio
ID : 2
Format : AAC
Format/Info : Advanced Audio Codec
Format profile : LC
Codec ID : 40
Duration : 3 min
Bit rate mode : Variable
Bit rate : 128 kb/s
Channel(s) : 2 channels
Channel positions : Front: L R
Sampling rate : 44.1 kHz
Frame rate : 43.066 FPS (1024 spf)
Compression mode : Lossy
Stream size : 3.45 MiB (4%)
Language : English

ekran-goruntuleri

i-hate-u-i-love-u-screenshot-1
i-hate-u-i-love-u-screenshot-2
i-hate-u-i-love-u-screenshot-3
i-hate-u-i-love-u-screenshot-4
i-hate-u-i-love-u-screenshot-5

yandex-disk

0 Comments

Bir Cevap Yazın

%d blogcu bunu beğendi: