PowerTürk Kulis – Simge – Kamera (1080p)

824 Views 0 Comment

video

dosya-bilgisi

Dosya Bilgisini Görmek İçin Bunun Solundaki + Tuşuna Basınız

General
Complete name : Simge - Kamera (PowerTürk Kulis 1080p).mp4
Format : MPEG-4
Format profile : Base Media / Version 2
Codec ID : mp42 (mp42/isom/avc1)
File size : 231 MiB
Duration : 12 min
Overall bit rate mode : Variable
Overall bit rate : 2 629 kb/s

Video
ID : 1
Format : AVC
Format/Info : Advanced Video Codec
Format profile : Main@L4
Format settings, CABAC : Yes
Format settings, ReFrames : 4 frames
Codec ID : avc1
Codec ID/Info : Advanced Video Coding
Duration : 12 min
Bit rate : 2 500 kb/s
Width : 1 920 pixels
Height : 1 080 pixels
Display aspect ratio : 16:9
Frame rate : 25.000 FPS
Stream size : 220 MiB (95%)

Audio
ID : 2
Format : AAC
Format/Info : Advanced Audio Codec
Format profile : LC
Codec ID : 40
Duration : 12 min
Bit rate mode : Variable
Bit rate : 125 kb/s
Maximum bit rate : 134 kb/s
Channel(s) : 2 channels
Channel positions : Front: L R
Sampling rate : 44.1 kHz
Stream size : 11.0 MiB (5%)

ekran-goruntuleri

powerturk-kulis-simge-kamera-ss-1
powerturk-kulis-simge-kamera-ss-2
powerturk-kulis-simge-kamera-ss-3
powerturk-kulis-simge-kamera-ss-4
powerturk-kulis-simge-kamera-ss-5
powerturk-kulis-simge-kamera-ss-6

yandex-disk

0 Comments

Bir Cevap Yazın

%d blogcu bunu beğendi: