PowerTürk Kulis – Yonca Lodi – Hazine (720p)

353 Views 0 Comment

video

dosya-bilgisi

Dosya Bilgisini Görmek İçin Bunun Solundaki + Tuşuna Basınız

General
Complete name : Yonca Lodi - Hazine (PowerTürk Kulis).mp4
Format : MPEG-4
Format profile : Base Media
Codec ID : isom (isom/iso2/avc1/mp41)
File size : 189 MiB
Duration : 12 min
Overall bit rate mode : Variable
Overall bit rate : 2 119 kb/s
Writing application : Lavf51.12.1

Video
ID : 1
Format : AVC
Format/Info : Advanced Video Codec
Format profile : Baseline@L1.3
Format settings, CABAC : No
Format settings, ReFrames : 1 frame
Format settings, GOP : M=1, N=12
Codec ID : avc1
Codec ID/Info : Advanced Video Coding
Duration : 12 min
Bit rate : 1 987 kb/s
Width : 1 280 pixels
Height : 720 pixels
Display aspect ratio : 16:9
Frame rate mode : Variable
Frame rate : 25.000 FPS
Minimum frame rate : 12.500 FPS
Maximum frame rate : 25.000 FPS
Color space : YUV
Chroma subsampling : 4:2:0
Bit depth : 8 bits
Scan type : Progressive
Bits/(Pixel*Frame) : 0.086
Stream size : 177 MiB (94%)

Audio
ID : 2
Format : AAC
Format/Info : Advanced Audio Codec
Format profile : LC
Codec ID : 40
Duration : 12 min
Bit rate mode : Variable
Bit rate : 127 kb/s
Channel(s) : 2 channels
Channel positions : Front: L R
Sampling rate : 44.1 kHz
Frame rate : 43.066 FPS (1024 spf)
Compression mode : Lossy
Stream size : 11.3 MiB (6%)

ekran-goruntuleri

powerturk-kulis-yonca-lodi-hazine-ss-1

powerturk-kulis-yonca-lodi-hazine-ss-2

powerturk-kulis-yonca-lodi-hazine-ss-3

powerturk-kulis-yonca-lodi-hazine-ss-4

powerturk-kulis-yonca-lodi-hazine-ss-5

powerturk-kulis-yonca-lodi-hazine-ss-6

yandex-disk

0 Comments

Bir Cevap Yazın

%d blogcu bunu beğendi: